warez v
Witamy
Zapraszam na stronę, zaloguj się.
Na tej stronie nie są umieszczone żadne pliki, a
jedynie informacje na ich temat (opis, długość, kodek, typ, rodzaj
kompresji, suma kontrolna itp.). Pamiętaj, że pliki objęte prawem
autorskim wolno zgrywać z sieci jedynie, jeżeli posiada się w domu ich
oryginalną wersję, a ściągniętą kopię będzie się traktować jako zapasową

Rejestracja jest darmowa - logując się zyskujesz dostęp do zasobów

Jeśli któryś z linków zawartych w artykułach na warezv łamie Państwa prawa autorskie,
prosimy o zgłoszenie tego faktu do administratora. Artykuł zostanie bezzwłocznie usunięty.

warez v

Witamy na WAREZVl! Tutaj znajdziesz wszystko! Darmowe filmy, darmowe gry, darmowe programy, darmowe mp3, albumy, szablony, tapety, teledyski, eBooki, anime, i wiele więcej... Wszystko za darmo!
 
IndeksfilmCalendarSzukajRejestracjaZaloguj

Share | 
 

 Corki.Dancingu.2015.PL.DVDRip.XviD-KiT / Polski film

Zobacz poprzedni temat Zobacz następny temat Go down 
AutorWiadomość
kiler



Liczba postów : 127
Data rejestracji : 06/03/2012

PisanieTemat: Corki.Dancingu.2015.PL.DVDRip.XviD-KiT / Polski film   22.07.17 20:46






Opis:
Kod:
Warszawa lata 80., dwie nastolatki rzucają się w wir imprez i koncertów.




Ten obrazek został pomniejszony [1920x882] do 47%, kliknij na niego aby go powiększyć



Przykładowe dane techniczne:

Kod:
General
Complete name               : Corki.Dancingu.2015.PL.DVDRip.XviD-KiT-DW-rafaldinho19.avi
Format                      : AVI
Format/Info                 : Audio Video Interleave
File size                   : 699 MiB
Duration                    : 1h 28mn
Overall bit rate            : 1 107 Kbps
Writing application         : VirtualDubMod 1.5.10.2 (build 2540/release)
Writing library             : VirtualDubMod build 2540/release

Video
ID                          : 0
Format                      : MPEG-4 Visual
Format profile              : Advanced Simple@L5
Format settings, BVOP       : 2
Format settings, QPel       : No
Format settings, GMC        : No warppoints
Format settings, Matrix     : Default (H.263)
Muxing mode                 : Packed bitstream
Codec ID                    : XVID
Codec ID/Hint               : XviD
Duration                    : 1h 28mn
Bit rate                    : 969 Kbps
Width                       : 640 pixels
Height                      : 272 pixels
Display aspect ratio        : 2.35:1
Frame rate                  : 25.000 fps
Color space                 : YUV
Chroma subsampling          : 4:2:0
Bit depth                   : 8 bits
Scan type                   : Progressive
Compression mode            : Lossy
Bits/(Pixel*Frame)          : 0.223
Stream size                 : 612 MiB (88%)
Writing library             : XviD 67

Audio
ID                          : 1
Format                      : MPEG Audio
Format version              : Version 1
Format profile              : Layer 3
Mode                        : Joint stereo
Mode extension              : MS Stereo
Codec ID                    : 55
Codec ID/Hint               : MP3
Duration                    : 1h 28mn
Bit rate mode               : Constant
Bit rate                    : 128 Kbps
Channel(s)                  : 2 channels
Sampling rate               : 48.0 KHz
Compression mode            : Lossy
Stream size                 : 80.9 MiB (12%)
Alignment                   : Aligned on interleaves
Interleave, duration        : 40 ms (1.00 video frame)
Interleave, preload duratio : 504 ms



Opis uploadu:

Kod:
Wielkość całości: 699 MB
Bez kompresji - ściągasz i oglądasz
Zawartość uploadu: .avi
Wersja Językowa: Polski film
Hasło: brak
Dane Naprawcze:brak



Linki:

catshare.net

Kod:
[You must be registered and logged in to see this link.]


fileshark.pl

Kod:
[You must be registered and logged in to see this link.]


openload.co

Kod:
[You must be registered and logged in to see this link.]


rapidu.net

Kod:
[You must be registered and logged in to see this link.]

_________________

Powrót do góry Go down
 
Corki.Dancingu.2015.PL.DVDRip.XviD-KiT / Polski film
Zobacz poprzedni temat Zobacz następny temat Powrót do góry 
Strona 1 z 1

Permissions in this forum:Nie możesz odpowiadać w tematach
warez v :: Filmy-
Skocz do: